Grateful Dead Lossless



deadlistening. Grateful Dead - Giants Stadium 1987, 1989, 1991 (2019) By admin flac-music 2019 , Rock 0 Comments Genre : Rock Release Date : 2019 Format : Flac (tracks) Quality : Lossless. "Tuning '77" - a seamless audio supercut of an entire year of the Grateful Dead tuning their instruments, live on stage. mmthmj Forum Resident. Детали релиза Grateful Dead - The Golden Road (1965-1973/2001) [FLAC (image +. The Grateful Dead have announced their latest deep-dive box set release, Pacific Northwest ’73-’74: The Complete Recordings, which will feature six complete shows recorded during those years. Grateful Dead Live at Fillmore West on 1969-03-02 Audio Preview Good dead fellows, fear not! The lossless zip file worked just fine for me. Cumberland Blues (Garcia, Lesh, Hunter) [03:20]. zepthompson 5. A single edit of the live performance included on Europe '72 was the group's third Billboard Top hit, peaking at 91 in According to Deadbase X"Sugar Magnolia" was the Dead. (Psychedelic Rock, West Coast Rock, Blues Rock) [CD] Grateful Dead - The Grateful Dead (1967) - 1987, FLAC (tracks+. but how can we test to see it this _truly_ is lossless and. Release Date: 11/01/2011. com We appreciate your support for our indie music store! Our in-store music selection of over 100,000 CDs and LPs. 99) and FLAC 192/24 ($149. Important Notice! Someone tried to vandalise the database by deleting about 76k entries. Lossless Legs is on Facebook. blues 2020-01-04 12:19:55 (119 Days) [email protected]. 0 Total Size: 4. X Lossless Decoder version 20121013 (142. Musopen (Free sheet music, royalty free music, and public domain resources) is a website that you can download loads of classical music. 1 kHz Tracklist: 01. Cornell 5/8/77 is a live album by the American rock band the Grateful Dead. Grateful Dead Records. Refer to gdstore. 00654 O, GDCD 9. Grateful Dead - Complete Studio Albums Collection 1967-89 (2013) FLAC [192kHz/24bit] Label: Warner Bros / Rhino Country: USA Genre: Rock Quality: FLAC (*tracks) Bitrate: Lossless [192kHz/24bit] Time: 08:40:22 Full Size: 18,4 Gb} This hi-res collection of the Grateful Dead 's studio work has been painstakingly produced from the original master tapes of each album, using their original mixes to. 99) and FLAC 192/24 ($119. However, when viewed in detail they reveal stark differences at many levels. Size: 102 MB / 288 MB. The Grateful Dead Movie, released in 1977 and directed by Jerry Garcia, is a film that captures live performances from rock band the Grateful Dead during an October 1974 five-night run at Winterland in San Francisco. Grateful Dead - June 1976 Year Of Release: 2020 Genre: Rock Format: Flac, Tracks Bitrate: lossless Sample Rate: 16bit/44. Grateful Dead - Playing in the Band (19:56) 12. 3 - Denver 1973 (2011) в формате Flac, Ape, Wavpack, WMA Lossless. 30 (2019)links hosted on Uploaded, Rapidgator, Nitroflare, Mega, Openload, Free, Direct Stream is also available Via putlocker or torrents. 1kHz Audio Channels: 2. How else could I sign up?. Grateful Dead live downloads in mp3, flac or online music streaming. Made in Eu. Press question mark to learn the rest of the keyboard shortcuts. 0 eMedia Bass Guitar Method 1. being a grateful dead fan im interested to know it its truly lossless as FLAC and shn. The box set—which, for the less fanatical among you, will also be available in 3-CD and 6-LP formats—contains recordings of the band's shows at the P. Contains tracks. Musopen (Free sheet music, royalty free music, and public domain resources) is a website that you can download loads of classical music. Grateful Dead - Dave's Picks Vol. He claims he doesn't usually do this, but I imagine that. 99) exclusively at dead. They were probably the first tracker ever to offer live Grateful Dead torrents. Grateful Dead - He's Gone (9:32) 13. zip: 1,48 GB Tracklist: 01. The Grateful Dead - The Best Of The Grateful Dead Artist: The Grateful Dead Album: The Best Of The Grateful Dead Label: Rhino. The Grateful Dead have announced their latest deep-dive box set release, Pacific Northwest ’73-’74: The Complete Recordings, which will feature six complete shows recorded during those years. In need of some Memorial Day Weekend Jams? This is a reconstruction of the original version of the live album Dylan & The Dead. Lossless Legs is a Private Torrent Tracker for GRATEFUL DEAD MUSIC / BOOTLEGS. Music > Lossless. Read More Feb 29, 2020 Comments: 0. 7 MB) 15 Drums. Download Album Grateful Dead – Dave’s Picks Volume 32: The Spectrum, Philadelphia, PA, 3/24/73 (2019) zip Flac. The Grateful Dead formed in the San Francisco Bay Area in 1965 amid the counterculture of the 1960s. 4: Capitol Theatre, Passaic, NJ 6/18/76 / Tower Theatre, Philadelphia, PA 6/21/76 (Live) by The Grateful Dead on Amazon Music. jpeg1,513 KBWembley 1. Answered By: clouseau-ga on 24 Mar 2005 21:01 PST They are lossless compressed from the original and CD. From it spawned a Medusa head of countless side projects, all deliciously fruitful but woefully not the same as the whole. "The Barton Hall show has - as have many things Grateful Dead - grown in stature over the years," said John Scher, who co-promoted the '77 show with the Cornell Concert Commission, revolutionized concert promotion while working with the band, and transformed The Capitol Theatre in Passaic, New Jersey into one of rock's most hallowed halls. 3 - Denver 1973 (2011) в формате Flac, Ape, Wavpack, WMA Lossless. Catalog #: 081227955984 Style: Blues Rock, Country Rock, Psychedelic Rock Year: 2015 Format: FLAC (tracks +. Mix - Dead & Company: Live from Lakewood Amphitheatre (6/13/2017 Set 2) YouTube. Grateful Dead - Pacific Northwest '73-'74: The Complete Recordings 2018 MP3 320kbps CBR and FLAC Lossless. Ranked as a five star dicks pick album In the Rolling Stone Album guide. Coliseum in Vancouver, B. Music > Lossless. The town, population about 3,000, has been the site of many a rock concert. The chorus lay in wait, pondering the reemergence of their heroes, and wondering if. Both MP3 and FLAC available. back to main menu * = Shows highly rated for great performance and/or audio quality. Your Kind Torrent Tracker's Facebook Page. Grateful Dead 1976-06-15 Beacon Theatre, New York NY - "205 - Friend of the Devil. Grateful Dead, flac files. Grateful Dead - Giants Stadium 1987, 1989, 1991. Grateful Dead - Complete Download Series (Vol. 0 % Test CRC 03600AD3 Copy CRC 03600AD3. The '76 sound in all its glory, bridging the gap between the early post-hiatus shows and the tightly spun symphonies of '77. Filename C:\Users\Meijin\Desktop\Lossless Galaxy ALLexxess\Grateful Dead\2004 Beyond Description 1973-1989 (12HDCD Box Set Rhino Records)\1973 Wake Of The Flood\Grateful Dead – Wake Of The Flood HDCD. Grateful Dead: Grateful Dead The Spectrum Philadelphia, PA Tuesday April 6th, 1982 MATRIX: +2db added to SBD source Mix by mdmilhausen October 6, 2018 Source Info: Jim Wise's Master (FOB) Audience Cassettes; Nakamichi 700 mics > Bob Wagner's Sony TC-D5M > Jim's Sony TC-D5M (Maxell UDXLII-C90) Transfer Info: Master Cassettes (Nakamichi Dragon. This fantastic show does not need my humble stamp of approval. zip Bootleg Kingdom: Grateful Dead- 1980 - 11/28, Lakeland Civic Center, Lakeland, FL The only music bootleg website where you can preview a track from each post before downloading. 5: 155: Lossless. On the same day, Rhino will release a compilation that highlights some of the best performances from the boxed set. Grateful Dead Download Series Volume 11 - 6/20/91 [p] Archival, Live, Downloadable 2006 Lossless Digital Grateful Dead Add issue. Artist: Grateful Dead Title Of Album: Blues For Allah Year Of Release: 2020 (1975) Label(Catalog#): Mobile Fidelity Sound Lab (UDSACD 2198) Country: USA Genre: Psychedelic Rock Quality: FLAC (*image +. I used a 5 star rating system, 5 being the best. Grateful Dead – Dave s Picks Volume 32 The Spectrum, Philadelphia, PA, 3-24-73 (2019). This was the last event at the old stadium before it was torn down and the Dead seemed intent on making her final moments memorable. cue) Quality : Lossless. Grateful Dead - Lazy River Road (Dean Smith Center, University of North Carolina, Chapel Hill, NC 3/25/1993) - 6:55 (738 kbps , 36. zepthompson 5. wav Pre-gap length 0:00:02. Grateful Dead - Giants Stadium 1987, 1989, 1991 (2019) By admin flac-music 2019 , Rock 0 Comments Genre : Rock Release Date : 2019 Format : Flac (tracks) Quality : Lossless. Grateful Dead - Complete Studio Albums Collection (2013) HDtracks (Lossless) 0 1 96. lossless: 12d; 36. Stadium in. LESS THAN 5000 LEFT The Grateful Dead battled the elements in July 1989, enduring drenching rains and stifling humidity during back-to-back shows at Robert F. Filename C:\uploads\Grateful Dead - The Grateful Dead\04 - Cold Rain and Snow. Artist: Grateful Dead Title Of Album: Complete Road Trips Year Of Release: 2014 Label: Rhino Country: United States Genre: Rock, Psychedelic Rock, Folk, Blues Rock Quality: FLAC (tracks) Bitrate: Lossless Full Size: 18 gb TRACKLIST: 1. You'd be like a freaking kid in a candy store. I have over 500 GB of shows from 1966 to 1995. To connect with Lossless Legs, join Facebook today. if searched through the net and not found a definitive answer to this. Live Downloads. I collect Grateful Dead soundboard recordings. Grateful Dead Download Series Volume 1 is the first in a series of digital downloads released by The Grateful Dead Productions. During the mid-1970s, the Grateful Dead saga was unfolding like a Greek classic. With large numbers of people thus attending strings of shows, a community developed. ) your music library might be very large. The Forum - Inglewood, CA - June 21st - Out On The Tiles. 28: 1976-06-17 Capitol Theatre, Passaic, NJ (2018) FLAC Comments 0. 55 Gb Tracklist: Boston. Grateful Dead: Soundboard Master from The Knudsen Collection at Lossless Legs The cassettes were donated to www. Dec 20, 2017 - Grateful Dead 2/8/70 Fillmore West San Francisco, CA Download: FLAC/MP3 -Setlist- 101-d1t01 - Smokestack Lightning* - Officially released on The Golden Road boxed set. The disc was likewise the third to be issued on their own Grateful Dead Records label. The Grateful Dead has detailed The set will also be available in its entirety as a digital download in Apple Lossless ($119. 2 - October 1977 (2008) в формате Flac, Ape, Wavpack, WMA Lossless. 99) and FLAC 192/24 ($149. well, you dont have to dl all of them, just the shows you want. This fantastic show does not need my humble stamp of approval. The twelfth in a series of shows made available by downloading from the official Grateful Dead site. 8 % Track quality 100. 8 % Extraction speed 8. Other bands like the grateful dead that have progressed to the number of recordings and versions that are circulating for dylan have been successful at this. "Tuning '77" - a seamless audio supercut of an entire year of the Grateful Dead tuning their instruments, live on stage. Grateful Dead 06/27/1985 Saratoga Performimg Arts Center Saratoga, NY Source: SBD > MC > DAT(48KHz). 0 eMedia Bass Guitar Method 1. Related Music (Beta) question-dark. Born out of the burgeoning West Coast hippie scene in San Francisco's Haight-Ashbury district during the late '60s, and inextricably linked to psychedelic experimentation, the Grateful Dead blended Psychedelic Folk music and a transformative live experience that grew into the largest, most devoted, and longest lived cult following in the history of popular music. The forum is private but that's the site where all the Grateful Dead lossless and mp3 files are being hosted for people to freely download as they please. Lossless Legs. FLAC Grateful Dead - 1978-09 - 13-14-15-16, Sphinx, Giza EG [FOB - new source]. Category: lossless Around & Around - The Grateful Dead - One From The Vault. Grateful Dead - Dave's Picks Vol. Blues [04:45] {5645 kbps} 02. Вы можете воспользоваться поиском торрент файлов, что бы скачать музыку Grateful Dead - Road Trips Vol. flac" yEnc (1/116) [46283K] Bismarck : a. voodoonola 95,417 views. flac" yEnc (1/120) FD a. 0) XLD extraction logfile from 2012-11-02 12:11:56 -0400 Grateful Dead / Winterland 1973: The Complete Recordings. Parties wishing to hearing more circa the Fall of 1971 tour are encouraged to discover the Grateful Dead Download Series, Vol. Filename C:\uploads\Grateful Dead - The Grateful Dead\04 - Cold Rain and Snow. Full HD Movies. 99) exclusively at dead. How else could I sign up?. The Cumberland Blues - The Grateful Dead - Europe 72 was first announced on January 19, and was described as consisting of "over 60" CDs ; the final CD count was The first 3, of these sets are personalized with a name of the buyer's choice. (ARPCD2 1053) Genre: Rock, Country Rock, Folk Rock Quality: FLAC | lossless (tracks) +. Bruce Springsteen: 44 shows / April 1, 2013: FLAC files: mp3 files - 320 kbps. This double-disc release highlights the Grateful Dead's final performance of a five show run at the Meadowlands Arena. Recorded Live at Various venues and cities, USA - June 21 to 27, 1977. Original Release Date: 2002. net by Jeff Knudsen in 2018. They've been around forever. To connect with Lossless Legs, join Facebook today. I restored those entries and have temporarily disabled the delete and edit functions to prevent further damage. The set will also be available as a digital download in Apple Lossless ($49. Download Grateful Dead November 5, 1977, Dick's Picks, Vol. Grateful Dead Download Series Volume 12 - 4/17/69 Grateful Dead Initial release : 2006. Grateful Dead - Ready or Not (Live) (2019) {24bit/48kHz, Hi-Res} November 21, 2019 Year: 2019 Audio Source: 24 Bit, WEB Audio Codec: FLAC Rip Type: Tracks Bitrate: Lossless Audi…. Check out Download Series Vol. but how can we test to see it this _truly_ is lossless and. from Lossless Legs. Deadheads unanimously herald October 16, 1989 -- guitarist/vocalist Bob Weir's 42nd birthday -- as one of the best shows not only of the band's fall tour, or even of the year, but of the decade. The twelfth in a series of shows made available by downloading from the official Grateful Dead site. The Grateful Dead was a 30-year ramble of touring. To connect with Lossless Legs, join Facebook today. Cố Giang Tình. Grateful Dead. Most sound incredible. 99) and FLAC 192/24 ($149. Deadhead or Dead Head is a name given to fans of the American rock band the Grateful Dead. Grateful Dead - June 1976 Year Of Release: 2020 Genre: Rock Format: Flac, Tracks Bitrate: lossless Sample Rate: 16bit/44. Their crusade began with Owsley "Bear" Stanley, who was the Dead's. Filename C:\uploads\Grateful Dead - The Grateful Dead\04 - Cold Rain and Snow. They were probably the first tracker ever to offer live Grateful Dead torrents. 98) exclusively at Dead. The forum is private but that's the site where all the Grateful Dead lossless and mp3 files are being hosted for people to freely download as they please. But then The Grateful Dead came to town, attracting 135,000 people, and that was the sort of record townspeople would rather have avoided. net Tapers' Section Several mp3s from the Vault. The band would return to touring in 1976. Music > Lossless. 0 Total Size: 4. Best quality lossless flac music. Dec 20, 2017 - Grateful Dead 2/8/70 Fillmore West San Francisco, CA Download: FLAC/MP3 -Setlist- 101-d1t01 - Smokestack Lightning* - Officially released on The Golden Road boxed set. Liberty (Live at Madison Square Garden, New York, NY, 10/14/1994) (06:16). Grateful Dead - Help On The Way/Slipknot! [07:22] {5645 kbps} 02. Grateful Dead Download Series Volume 1 is the first in a series of digital downloads released by The Grateful Dead Productions. He shares most of these shows at 44. Lê Bảo Bình. Considerable effort goes into documenting and running this site, and posting the flac fingerprints will make it easier to manage. A velocidade do 4shared é fantástica e baixar esta discigrafia foi um prazer. Grateful Dead Saturday, April 7th, 1984 Irvine Meadows Amphitheatre Irvine, California Soundboard Master from The Knudsen Collection at Lossless Legs The cassettes were donated to www. Company (R2 74401-1) Genre: Rock, Country Rock, Folk Rock, Blues Quality: FLAC | lossless (image) +. 1 month ago : 991. The set will also be available in its entirety as a digital download in Apple Lossless ($119. (Rock, Psychedelic, Folk Rock) [CD] Grateful Dead - Collection: Dave's Picks Volumes 1-14 - 2012-2015, FLAC (tracks+. Lossless Legs is a Private Torrent Tracker for GRATEFUL DEAD MUSIC / BOOTLEGS. Grateful Dead - I Know You Rider (7:02) 9. Dan McSheffrey recording: (FOB) AKG 460/CK2 > PCM (Sony PCM-F1) > Dat (44. I have over 500 GB of shows from 1966 to 1995. Grateful Dead - Europe '72 The Complete Recordings Box Set (FLAC)01. com We appreciate your support for our indie music store! Our in-store music selection of over 100,000 CDs and LPs. (ARPCD2 1053) Genre: Rock, Country Rock, Folk Rock Quality: FLAC | lossless (tracks) +. 48MB) All Audio Songs MP3 Songs Music Mylene Farmer Vinyl Collection (Size: 50. The Grateful Dead is separated from the Live Music Archive into its own collection (with its own forum) to avoid confusion about lossless availability. The Song remains The Same. Listen to live concerts at nugs. 1969 Lossless Part 4 Vine. 2020 Faektilar. blues 2020-01-04 12:19:55 (119 Days) [email protected]. June 12th, Boston Music hall, Boston, MA - WBCN Broadcast June…. The '76 sound in all its glory, bridging the gap between the early post-hiatus shows and the tightly spun symphonies of '77. Pop | Alternative 4AD are pleased to announce the release of Day of the Dead, a celebration of the Grateful Dead's music. Download Grateful Dead November 5, 1977, Dick's Picks, Vol. Parties wishing to hearing more circa the Fall of 1971 tour are encouraged to discover the Grateful Dead Download Series, Vol. well, you dont have to dl all of them, just the shows you want. In addition, in order to fill out the third disc, bonus material is included from the previous night at. 5 Show, 12CD Limited Edition/1000 only. Chronologically sequenced, this remix incorporates every publicly available recording from 1977, examining the divide between audience expectation and performance anxiety. Bạn có thể nghe online, download (tải bài hát) Playing In The Band tốc độ cao về máy với các chất lượng 128kbps, 320kbps, lossless hoàn toàn miễn phí. in: 2019 Lossless, Box set, LOSSLESS Grateful Dead – Giants Stadium 1987, 1989, 1991 Year Of Release: 2019 Genre: Rock Format: Flac, Tracks Bitrate: lossless Sample Rate: 16bit/44. The Grateful Dead Movie, released in 1977 and directed by Jerry Garcia, is a film that captures live performances from rock band the Grateful Dead during an October 1974 five-night run at Winterland in San Francisco. Be the first to know about the Grateful Dead. Franklin's Tower (4. Grateful Dead - Road Trips: Vol. It was recorded March 24-26, , and was released in The album was certified Gold by the RIAA on March 28, Fans of the Dead frequently refer to the album as "Dosin" at the zululardrelaanayariel. 99) exclusively at dead. Grateful Dead From The Mars Hotel (1974) Wake Of The Flood (1973) History Of The Grateful Dead, Vol. Grateful Dead - Black Throated Wind (7:01) 7. net) LL is my number one favorite bittorrent tracker for several reasons. I have built this site to allow Shn. 2 - October 1977 (2008) в формате Flac, Ape, Wavpack, WMA Lossless. It’s been a long time coming, Dead Heads, but the day is finally here: Rhino Records has released the 15-CD boxed set JUNE 1976. For membership, you'll have to ask Germain. Grateful Dead - Aoxomoxoa (2019) [FLAC] September 4, 2019 admin Lossless. The six-CD set compiles the legendary band's performances at RFK Stadium in Washington D. 53 MB) Grateful Dead - Samba In The Rain (The Omni, Atlanta, GA, 3/30/1995) - 6:47 (838 kbps , 40. They were probably the first tracker ever to offer live Grateful Dead torrents. This fantastic show does not need my humble stamp of approval. 365 days, 365 Grateful Dead songs with thoughts on each selection. 4: Capitol Theatre, Passaic, NJ 6/18/76 / Tower Theatre, Philadelphia, PA 6/21/76 (Live) by The Grateful Dead on Amazon Music. com for complete song. lucan_g, Jun 12, 2018 #17. Liberty (Live at Madison Square Garden, New York, NY, 10/14/1994) (06:16). DAVE'S PICKS VOLUME 31: UPTOWN THEATRE, CHICAGO, IL 12/3/79 signals a true rebirth of the Grateful Dead, reimagining classics and foreshadowing their 80s sound. They played early and late shows at the two Fillmores, there shared billing with other prominent bands (Fleetwood Mac, etc) and so on. 0 % Test CRC 6CD1E2D5 Copy CRC 6CD1E2D5 Copy OK Track 5 Filename C:\uploads\Grateful Dead - The Grateful Dead\05 - Sitting on Top of the World. Be the first to know about the Grateful Dead's exclusive limited-edition releases, breaking news. I am wondering how many of you know about all the free LIVE music available on archive. 3: 10/26/1971 (2005). Bruce Springsteen: 44 shows / April 1, 2013: FLAC files: mp3 files - 320 kbps. (Rock, Psychedelic, Folk Rock) [CD] Grateful Dead - Collection: Dave's Picks Volumes 1-14 - 2012-2015, FLAC (tracks+. grateful dead of the day: march 20, 1992 "Here we have a smoking show from north of the border in 1992. 30 Trips Around The Sun by Grateful Dead published on 2015-12-04T02:20:03Z. & venues who permit live recording. The six complete shows - 6/22/73, 6/24/73, 6/26/73, 5/17/74, 5/19/74 and 5/21/74 - will be available on 19 Discs, or via digital download (Apple Lossless or HD FLAC ). Artist: Grateful Dead Title Of Album: Europe'72 Release Date: 1972 (2001) Location: USA Label: Warner Bros Records/Rhino Ent. 5 Show, 12CD Limited Edition/1000 only. TuneTree Hosts trading friendly bands in lossless SHN and FLAC format. Been swamped by the man! Have a grateful holiday! 2. Grateful Dead - Complete Studio Albums Collection (2013) HDtracks (Lossless) 0 1 96. There is a handbill, but I have never seen any eyewitness or other accounts of the GD's performance. On November 10 the Grateful Dead will issue a new archival release entitled RFK Stadium 1989 Box. Blues [04:45] {5645 kbps} 02. This fantastic show does not need my humble stamp of approval. Детали релиза Grateful Dead - The Golden Road (1965-1973/2001) [FLAC (image +. The Forum - Inglewood, CA - June 21st - Out On The Tiles. I collect Grateful Dead soundboard recordings. Full HD Movies. Free Grateful Dead music is generally shared in the form of lossless FLAC (Free Lossless Audio Codec) or SHN (Shorten) files. cue) Grateful Dead - Complete Live Rarities Collection (2013) FLAC. Grateful Dead, trang thông tin chính thức về nhạc Grateful Dead, toàn bộ bài hát mới, video mới nhất và album hay nhất của Grateful Dead. They've been around forever. "The Grateful Dead" does a good job of making this a documentary by showing backstage scenes, the group interacting with fans inside and outside the venue (Winterland), the crews setting up and tearing down, etc. Shop for grateful dead at Best Buy. The metadata and reviews for shows and recordings, even those not available for regular download, will remain available for those who maintain direct links. Grateful Dead lossless flac & shn file downloads. Grateful Dead From The Mars Hotel (1974) Wake Of The Flood (1973) History Of The Grateful Dead, Vol. TuneTree Hosts trading friendly bands in lossless SHN and FLAC format. Download surround and lossless music | DVD-Audio, DTS-CD, SACD, Audio-DVD, DTS 5. 70 [Live] 2010 Once a deadhead, always a deadhead? Brought to you by TQMP The Quality Music Project Disk set and suggestion to share, courtesy of slipper girl. 1 MB) 14 Terrapin Station. Grateful Dead - Giants Stadium 1987, 1989, 1991. 2015 Fare Thee Well [081227 95229 7, EU] 2015 The Best Of The Grateful Dead 2015 Uncut Ramble On Rose 2014 Dave's Picks Vol. As well as Skeletons in the Closet I can't find 'em affordable on vinyl and the lossless torrents I found don't have enough seeders for me to download it :( Lossless or mp3 is fine, I just wanna hear this album!. infoinfo: Rock. 5 out of 5 with 4 reviews (4) Compare. Leap in and download, unzip, convert, burn and smoke 'em if you got 'em. Help On The Way (3:15) 1b. The Grateful Dead was a 30-year ramble of touring. Grateful Dead - Workingmans Dead (2014) MFSL SACD 24bit FLAC Beolab1700 (Size: 678. Grateful Dead: Soundboard Master from The Knudsen Collection at Lossless Legs The cassettes were donated to www. For fans of the Grateful Dead, their May 8, 1977 concert at Cornell University remains a touchstone moment, perhaps the most cherished set in a tapestry of legendary shows. if searched through the net and not found a definitive answer to this. Here at Allflac. Artist: Grateful Dead Title Of Album: Complete Road Trips Year Of Release: 2014 Label: Rhino Country: United States Genre: Rock, Psychedelic Rock, Folk, Blues Rock Quality: FLAC (tracks) Bitrate: Lossless Full Size: 18 gb TRACKLIST: 1. Grateful Dead - Europe '72 The Complete Recordings Box Set (FLAC)01. Este é o melhor blog do mundo, sem dúvida. The band has also released more than two dozen singles and a number of videos. Grateful Dead - Aoxomoxoa (50th Anniversary Deluxe Edition, Remastered) 5 0 758. This double-disc release highlights the Grateful Dead's final performance of a five show run at the Meadowlands Arena. Grateful Dead - Dave's Picks Vol. Free Download Lossless Music. Grateful Dead -The Complete Road Trips ( 2014) (WEB - FLAC)13 Road Trips Volume 4 Number 113 Road Trips Volume 4 Number 1 13. cue + log Length: (01:19:58 + 01:19:43) min Tracks: 14 + 11 Total Size: 945 Mb (+3 %) WebSite: Home Page Tracklist: CD1 01. I have built this site to allow Shn. November 21, 2019. 99) and FLAC 192/24 ($119. Grateful Dead live downloads in mp3, flac or online music streaming. ) your music library might be very large. Coliseum in Vancouver, B. Catalog #: 081227955984 Style: Blues Rock, Country Rock, Psychedelic Rock Year: 2015 Format: FLAC (tracks +. Recorded Live at Various venues and cities, USA - June 21 to 27, 1977. Find a show you've attended, and leave some comments for other users!. 50+ videos Play all Mix - Grateful Dead - Scarlet - Fire - Civic Center Arena - St. jpeg1,513 KBWembley 1. Transfer, mastering and lossless encoding by C. Caution (Don't Stop on Tracks) (2; Live in Denmark, 1972) by Grateful. Where the Dead Drew Throngs. "The Grateful Dead" does a good job of making this a documentary by showing backstage scenes, the group interacting with fans inside and outside the venue (Winterland), the crews setting up and tearing down, etc. zip: 1,75 GB Tracklist: 01. Grateful Dead - Complete Studio Albums Collection (2013) HDtracks (Lossless) 0 0 96. Kennedy Stadium in the nation's capital. 99) and FLAC 192/24 ($149. Find a show you've attended, and leave some comments for other users!. Read More Feb 29, 2020 Comments: 0. Dick's Picks Vol. It's not that the people of Oxford, Me. Full HD Movies Download. Grateful Dead - Dave's Picks Vol. The six-CD set compiles the legendary band's performances at RFK Stadium in Washington D. Download Grateful Dead - Live / Dead torrent or any other torrent from Lossless category. " Another poses the rhetorical question: "[I'll] still take 2/15/73 Madison over any other. Grateful Dead, trang thông tin chính thức về nhạc Grateful Dead, toàn bộ bài hát mới, video mới nhất và album hay nhất của Grateful Dead. 2 MB) 20 Around and Around. The box set—which, for the less fanatical among you, will also be available in 3-CD and 6-LP formats—contains recordings of the band's shows at the P. Format: MP3 / FLAC. 365 days, 365 Grateful Dead songs with thoughts on each selection. Facebook Twitter RSS Email. com/ Allows people to upvote best performances of each GD song, with a. Deadheads unanimously herald October 16, 1989 -- guitarist/vocalist Bob Weir's 42nd birthday -- as one of the best shows not only of the band's fall tour, or even of the year, but of the decade. 98 and will ship to arrive on March 20. 28: 1976-06-17 Capitol Theatre, Passaic, NJ (2018) FLAC Comments 0. Dozin' at the Knick is a recording of the Grateful Dead performing live in concert at the Knickerbocker Arena in Albany, New York. 0 eMedia Bass Guitar Method 1. infoinfo: Rock. lucan_g, Jun 12, 2018 #17. Grateful Dead - Daves Picks Vol 17 Selland Arena Fresno 7-19-74 (2016) FLAC Beolab1700: 31 Jan: 1006. 7 MB) cover. Grateful Dead - Lazy River Road (Dean Smith Center, University of North Carolina, Chapel Hill, NC 3/25/1993) - 6:55 (738 kbps , 36. cue,log,scans) Bitrate: Lossless Time: 34:54 Full Size: 528 Mb Tracklist: 1a. I restored those entries and have temporarily disabled the delete and edit functions to prevent further damage. The metadata and reviews for shows and recordings, even those not available for regular download, will remain available for those who maintain direct links. in: 2019 Lossless, Box set, LOSSLESS Grateful Dead – Giants Stadium 1987, 1989, 1991 Year Of Release: 2019 Genre: Rock Format: Flac, Tracks Bitrate: lossless Sample Rate: 16bit/44. Turn On Your Lovelight (Live At Big Rock Pow Wow. Page 2- Lossless Legs? Technobabble The Traders' Den > Plus, the setlists are better than Furthur, which are better than the Grateful Dead setlists. com ArtWork: included Size. 3 - Denver 1973 (2011) в формате Flac, Ape, Wavpack, WMA Lossless. Mar 6, 2018 - Explore hippieashley's board "Grateful Dead ART", followed by 247 people on Pinterest. Been swamped by the man! Have a grateful holiday! 2. HD Tracks & Vinyl Lossless Hi-Res FLAC hdtracks hi - res music download Sunday, March 4, 2018 Grateful Dead - Complete Studio Albums Collection 1967-89 (2013) FLAC [192kHz/24bit]. The Spacelords. Good dead fellows, fear not! The lossless zip file worked just fine for me. about the early Jefferson Airplane and Grateful Dead period, which is sometimes blurred in San Franciscan fog and diversely documented Those were the Sixties, folks ;-) All shows are direct from the taper and/or from lossless lineage, except explicitely stated otherwise. With Bruce goading Jerry to some lucid, beatific playing, the first set bristles with energy from the luminous Althea to the deep and bluesy Same Thing to the transcendent Bird Song. Artist: Grateful Dead Title Of Album: Blues For Allah Year Of Release: 2020 (1975) Label(Catalog#): Mobile Fidelity Sound Lab (UDSACD 2198) Country: USA Genre: Psychedelic Rock Quality: FLAC (*image +. Lossless Legs is on Facebook. Joan Baez was dating Mickey when this happened, which is a major reason why it was created. zepthompson 5. Grateful Dead - Giants Stadium 1987, 1989, 1991 (2019) By admin flac-music 2019 , Rock 0 Comments Genre : Rock Release Date : 2019 Format : Flac (tracks) Quality : Lossless. Grateful Dead - I Know You Rider (7:02) 9. Grateful Dead lossless flac & shn file downloads. 0 Total Size: 4. Grateful Dead - Dave's Picks Vol. being a grateful dead fan im interested to know it its truly lossless as FLAC and shn. Location: Denver, CO. Unofficial (lossless) Unofficial compilations. Location: Denver, CO. Grateful Dead - Lazy River Road (Dean Smith Center, University of North Carolina, Chapel Hill, NC 3/25/1993) - 6:55 (738 kbps , 36. Day of the Dead was created and curated by brothers Aaron and Bryce Dessner of The National. The metadata and reviews for shows and recordings, even those not available for regular download, will remain available for those who maintain direct links. It is a good practice and a good example to set for others. Grateful Dead lossless flac & shn file downloads. Grateful Dead - Easy Wind [05:00] 8. Good dead fellows, fear not! The lossless zip file worked just fine for me. Full HD Movies. And we can hear some real fine compositions of Joan Baez. The October 26 Palestra gig in Rochester, NY is offered in mp3 and the high quality lossless FLAC formats. 06 Peak level 90. With large numbers of people thus attending strings of shows, a community developed. Grateful Dead - Ready or Not (Live) (2019) {24bit/48kHz, Hi-Res} November 21, 2019 Year: 2019 Audio Source: 24 Bit, WEB Audio Codec: FLAC Rip Type: Tracks Bitrate: Lossless Audi…. Artist: Grateful Dead Title Of Album: Europe'72 Release Date: 1972 (2001) Location: USA Label: Warner Bros Records/Rhino Ent. The box set features every note played at the iconic band’s concerts at R. Os Grateful Dead são uma referência dos anos 60-70 do rock psicadélico. Check out Download Series Vol. Grateful Dead - Lazy River Road (Dean Smith Center, University of North Carolina, Chapel Hill, NC 3/25/1993) - 6:55 (738 kbps , 36. Company (R2 74401-1) Genre: Rock, Country Rock, Folk Rock, Blues Quality: FLAC | lossless (image) +. Careful listening will be rewarded with a Lossless digital version of the band's "Dark Star," circa 11/2/69. The disc was likewise the third to be issued on their own Grateful Dead Records label. 1 kHz (Tracks). Lossless Legs is the site where all new sources are shared first by the folks who master them. flac" yEnc (1/116) [46283K] Bismarck : a. The Grateful Dead has detailed The set will also be available in its entirety as a digital download in Apple Lossless ($119. In response to the ongoing demand, subsequent copies of the set were released, dubbed Europe ' The. A 19-disc live Grateful Dead box set—Pacific Northwest '73-'74: The Complete Recordings—will be available September 7, Rhino announced today. Tag: Grateful Dead. Kennedy Stadium in the nation's capital. Grateful Dead Saturday, April 7th, 1984 Irvine Meadows Amphitheatre Irvine, California Soundboard Master from The Knudsen Collection at Lossless Legs The cassettes were donated to www. Grateful Dead - Dave's Picks Vol. 3 - Denver 1973 (2011) в формате Flac, Ape, Wavpack, WMA Lossless. Stadium Washington D. Help On The Way (3:15) 1b. 20-05-2016, 13:53. Grateful Dead - Complete Studio Albums Collection (2013) HDtracks (Lossless) 0 0 96. Bài Hát Tìm Kiếm Nhiều Nhất. 07 Scans Wembley 1. 0 % Test CRC 03600AD3 Copy CRC 03600AD3. It is a good practice and a good example to set for others. 48MB) ~ PickTorrent. wav Pre-gap length 0:00:02. 1 (Bear's Choice) (1973) 1 Comments. Recorded Live at Various venues and cities, USA - June 21 to 27, 1977. 365 days, 365 Grateful Dead songs with thoughts on each selection. Rhino’s newest Grateful Dead concert release, “Crimson, White & Indigo” is a DVD/CD combo set, this time from Philadelphia’s JFK Stadium on July 7, 1989. The October 26 Palestra gig in Rochester, NY is offered in mp3 and the high quality lossless FLAC formats. 0 Total Size: 4. Since "the music plays the band" in terms of Grateful Dead live performances, I know they can be the very best at times, or sometimes less than that too. Press question mark to learn the rest of the keyboard shortcuts. Grateful Dead - Europe '72 The Complete Recordings Box Set (FLAC)01. My favorite Bruce Hornsby albums are Scenes from the Southside (1988) and Spirit Trail (1998). com/ Allows people to upvote best performances of each GD song, with a. org is a community committed to providing the highest quality live concerts in a lossless, downloadable format from bands including Phish, The Grateful Dead, String Cheese Incident, The Slip, Medeski, Martin and Wood, Umphrey's McGee, The Big Wu, Amphibian and The New Deal. The Grateful Dead's 50-year-long strange trip down so many roads is an unbroken chain of sunshine daydreams and old memories coming alive. He takes the original reels, cassettes, and in some cases multi tracks and archives at 96/24. The twelfth in a series of shows made available by downloading from the official Grateful Dead site. Grateful Dead - Dave's Picks Vol. TheNuthatch 6. the thing thats unique is there a blend of sbd and aud, about 60/40. Check out Download Series Vol. Official Site Of The Grateful Dead. This is the Fillmore East concert from New York February 13-14 1970. Grateful Dead - Complete Download Series (Vol. Dan McSheffrey recording: (FOB) AKG 460/CK2 > PCM (Sony PCM-F1) > Dat (44. 28: 1976-06-17 Capitol Theatre, Passaic, NJ (2018) FLAC Comments 0. 7 MB) cover. Yep, love the 'Bertha' and 'Help Me Rhonda, and yep, all thanks to Pig - the Dead are and always. DeadCo 6-22-17 Bristow VA Jiffy Lube Live. Grateful Dead Tabs Software EMedia Bass Guitar Method v. Transfer, mastering and lossless encoding by C. in: 2019 Lossless, Box set, LOSSLESS Grateful Dead – Giants Stadium 1987, 1989, 1991 Year Of Release: 2019 Genre: Rock Format: Flac, Tracks Bitrate: lossless Sample Rate: 16bit/44. Dozin' at the Knick is a recording of the Grateful Dead performing live in concert at the Knickerbocker Arena in Albany, New York. They take up a lot more space on your hard drive. In spite of the bleak weather, the band thrilled the massive crowds both nights with triumphant performances that rank among the very best of a busy year that included 74 shows and the release. 24 Peak level 93. Grateful Dead - Mexicali Blues (3:49) 10. Catalog #: 081227955984 Style: Blues Rock, Country Rock, Psychedelic Rock Year: 2015 Format: FLAC (tracks +. Barton Hall Photos 5/8/77. The six-CD set compiles the legendary band's performances at RFK Stadium in Washington D. 2020 Faektilar. A velocidade do 4shared é fantástica e baixar esta discigrafia foi um prazer. Peak level 98. net as a digital download in Apple Lossless ($99. net beginning on September 7. flac (1/171) [68227K 1 binary [101 Segments] posted by bismarck < [email protected] 55. Grateful Dead - Cornell 5-8-77 (2017) 375 MB Grateful Dead The Best Of The Grateful Dead (Live) [FLAC] 954 MB Grateful Dead - Long Strange Trip: The Untold Story of the Grateful Dead (Motion Picture Soundtrack) (2017) [FLAC] 915 MB. 99) and FLAC 192/24 ($149. Anyway, you probably know the names: Phish, Government Mule, Widespread Panic, etc. com ArtWork: included Size. X Lossless Decoder version 20121013 (142. The Grateful Dead's 50-year-long strange trip down so many roads is an unbroken chain of sunshine daydreams and old memories coming alive. Company (R2 74401-1) Genre: Rock, Country Rock, Folk Rock, Blues Quality: FLAC | lossless (image) +. I used a 5 star rating system, 5 being the best. It continued after Garcia's death in a kind of post-history: first as the Other Ones, and later simply as the Dead (no "Grateful"), which. com - торрент трекер c лучшей музыкой в lossless качестве. 0 % Test CRC 6CD1E2D5 Copy CRC 6CD1E2D5 Copy OK Track 5 Filename C:\uploads\Grateful Dead - The Grateful Dead\05 - Sitting on Top of the World. Stadium in. Pop | Alternative 4AD are pleased to announce the release of Day of the Dead, a celebration of the Grateful Dead's music. Grateful Dead - Complete Download Series (Vol. Catalog #: 081227955984 Style: Blues Rock, Country Rock, Psychedelic Rock Year: 2015 Format: FLAC (tracks +. 26 Bonus Disc Hill Auditorium, Ann Arbor, MI 12-14-71 (2018) FLAC (tracks +. Cornell 5/8/77 is a live album by the American rock band the Grateful Dead. The previous reviewer must have had some bad luck (and I hope he's since been able to work around his problem). Both MP3 and FLAC available. 99 Your price for. 0 % Test CRC 03600AD3 Copy CRC 03600AD3. Deadheads developed their own idioms and slang. Over The Hills And Far Away. From it spawned a Medusa head of countless side projects, all deliciously fruitful but woefully not the same as the whole. And the live performances that were edited for this film shot in. I restored those entries and have temporarily disabled the delete and edit functions to prevent further damage. The discography of the rock band the Grateful Dead includes more than 200 albums, the majority of them recorded live in concert. distribute freely in lossless formats. 48MB) All Audio Songs MP3 Songs Music Mylene Farmer Vinyl Collection (Size: 50. Grateful Dead - Grateful Dead Records Collection (Compilation) 4 0 165. Check out Download Series Vol. Deadhead or Dead Head is a name given to fans of the American rock band the Grateful Dead. 1 kHz (Tracks) Artist: Grateful Dead Title: June 1976 (2020) 15CD Box Set Released: 2020 Style: Rock RAR Size: 4. 0 eMedia Bass Guitar Method 1. 24 Peak level 93. net by Jeff Knudsen in 2018. zip: 1,75 GB Tracklist: 01. Because of the age of the site the design looks fairly dated and the user interface is pretty clunky. Stadium in. -- Jeff Weiss Photo: Undated file photo of the Grateful Dead. (6/22/73), Portland Memorial Coliseum in Portland, OR (6/24/73. Grateful Dead, flac files. Lossless audio files are huge compared to mp3s. Considerable effort goes into documenting and running this site, and posting the flac fingerprints will make it easier to manage. 2 - October 1977 (2008) в формате Flac, Ape, Wavpack, WMA Lossless. Some shows have more highlights than others. Direct download via HTTP available as well. Founded in 1980 as an independent music store, the Princeton Record Exchange continues to promote and support some of the best musicians and their recordings, including Grateful Dead CDs, DVDs and more. Mix - Dead & Company: Live from Lakewood Amphitheatre (6/13/2017 Set 2) YouTube. gratefuljim at 7:17 PM No comments: great quality Available in both Lossless (FLAC) and Nassau Coliseum - Uniondale NY - LINK Grateful Dead March 29 , 1990. 0 Total Size: 4. This means you will need a sizable hard drive (or perhaps several). Franklin's Tower (4. The Grateful Dead - The Best Of The Grateful Dead Artist: The Grateful Dead Album: The Best Of The Grateful Dead Label: Rhino. net Tapers' Section Several mp3s from the Vault. This period of the Grateful Dead was the last significant leg where they played shows in the structure of other contemporary rock bands. Grateful Dead - Giants Stadium 1987, 1989, 1991 (2019) By admin flac-music 2019 , Rock 0 Comments Genre : Rock Release Date : 2019 Format : Flac (tracks) Quality : Lossless. Judged across the entire 30 year span of Grateful Dead music, 1973 and 1974 possess tremendous similarities. Chronologically sequenced, this remix incorporates every publicly available recording from 1977, examining the divide between audience expectation and performance anxiety. With 1970’s Workingman’s Dead, the Grateful Dead went through an overnight metamorphosis, turning abruptly from tripped-out free-form rock toward sublime acoustic folk and Americana. LESS THAN 5000 LEFT The Grateful Dead battled the elements in July 1989, enduring drenching rains and stifling humidity during back-to-back shows at Robert F. 28: 1976-06-17 Capitol Theatre, Passaic, NJ (2018) FLAC Comments 0. 0 Total Size: 4. Grateful Dead lossless flac & shn file downloads. Production is limited to 12,000 individually numbered copies. Dozin' at the Knick is a recording of the Grateful Dead performing live in concert at the Knickerbocker Arena in Albany, New York. zepthompson 5. “An Evening With The Grateful Dead” worked conceptually because the music of both bands went well together. Grateful Dead Download Series Volume 1 is the first in a series of digital downloads released by The Grateful Dead Productions. com ArtWork: included Size. Find low everyday prices and buy online for delivery or in-store pick-up. The Grateful Dead's 50-year-long strange trip down so many roads is an unbroken chain of sunshine daydreams and old memories coming alive. Find a show you've attended, and leave some comments for other users!. cue + log Length: 01:10:34 min Tags: Folk-Rock, Country, Grateful Dead, Rock. Alabama Getaway (Live at Crisler Arena, Ann Arbor, November 10, 1979) (5:30) 1. Grateful Dead -The Complete Road Trips ( 2014) (WEB - FLAC)13 Road Trips Volume 4 Number 113 Road Trips Volume 4 Number 1 13. Parties wishing to hearing more circa the Fall of 1971 tour are encouraged to discover the Grateful Dead Download Series, Vol. Filename C:\uploads\Grateful Dead - The Grateful Dead\04 - Cold Rain and Snow. Music > Lossless. Mar 6, 2018 - Explore hippieashley's board "Grateful Dead ART", followed by 247 people on Pinterest. flac" yEnc (1/116) [46283K] Bismarck : a. Lossless Albums » FLAC 16 bit » Grateful Dead - June 1976 (2020) [15CD Box Set] FLAC Grateful Dead - June 1976 (2020) [15CD Box Set] FLAC Genres: FLAC 16 bit / Rock 15-04-2020, 14:20 83 Music_land. Grateful Dead – Ready or Not (Live) (2019) By bestmusic 2019, Rock 0 Comments. Dylan & The Dead - 6: A: donated by Alan Fraser; Setlist and Information, LB-10235: 5/xx/87: San Rafael CA: 1: B+: rehearsals version "a", Dylan Dead Rehearsals, San: LB-14170: 5/xx/87: Le Club Front : B+: rehearsals lta 48k, & Grateful Dead 6/1/87, LB-0246: 6/xx/87: Grateful Dead Hour: 1: A: Radio program broadcast date March 25, 2002, this. The six-CD set compiles the legendary band's performances at RFK Stadium in Washington D. Dan McSheffrey recording: (FOB) AKG 460/CK2 > PCM (Sony PCM-F1) > Dat (44. 1 kHz (Tracks) Artist: Grateful Dead Title: June 1976 (2020) [15CD Box Set] Released: 2020 Style: Rock RAR Size: 4. The Rover Intro / Sick Again. Artist: Grateful Dead Title Of Album: Blues For Allah Year Of Release: 2020 (1975) Label(Catalog#): Mobile Fidelity Sound Lab (UDSACD 2198) Country: USA Genre: Psychedelic Rock Quality: FLAC (*image +. ive heard that the bitrate is appr. Lossless / FLAC Direct Download Links(updated 9/29/15) : Ousterhout. Short show due to the band arriving late. Music in LOSSLESS formats Tag cloud Grateful Dead Grateful Dead - The Best of The Grateful Dead [2CD] (2015) Other music / Rock, Metal Chaton 0 2 651 11-04-2015, 20:30. "Tuning '77" - a seamless audio supercut of an entire year of the Grateful Dead tuning their instruments, live on stage. A velocidade do 4shared é fantástica e baixar esta discigrafia foi um prazer. Lossless Albums » FLAC 16 bit » Grateful Dead - June 1976 (2020) [15CD Box Set] FLAC Grateful Dead - June 1976 (2020) [15CD Box Set] FLAC Genres: FLAC 16 bit / Rock 15-04-2020, 14:20 83 Music_land. Grateful Dead -The Complete Road Trips ( 2014) (WEB - FLAC)13 Road Trips Volume 4 Number 113 Road Trips Volume 4 Number 1 13. Download Grateful Dead - Dave's Pick's Volume 12 torrent or any other torrent from Audio > FLAC Direct download via magnet link. Grateful Dead - Deal (4:55) 6. 28: 1976-06-17 Capitol Theatre, Passaic, NJ (2018) FLAC Comments 0. Dick's Picks Vol. The Grateful Dead. From it spawned a Medusa head of countless side projects, all deliciously fruitful but woefully not the same as the whole. I have built this site to allow Shn. The majority of these were mastered by a fellow named Charlie Miller. com for complete song. blogspot Helping new and old-comers navigate through listening choices in the sea of Grateful Dead shows available on and off line. Lossless Legs is the site where all new sources are shared first by the folks who master them. Their crusade began with Owsley "Bear" Stanley, who was the Dead's. This was the last event at the old stadium before it was torn down and the Dead seemed intent on making her final moments memorable. The six complete shows - 6/22/73, 6/24/73, 6/26/73, 5/17/74, 5/19/74 and 5/21/74 - will be available on 19 Discs, or via digital download (Apple Lossless or HD FLAC ). Production of the set is limited to 15,000 individually numbered copies and available exclusively from Dead. Flavored Coffee JAZZ. As we close out the 2019 Dave Pick's series, we deliver on our promise to give you the "whole thing" with the complete performance from The Spectrum, Philadelphia, PA 3/24/73 and what a show it was! An upstanding "musical eulogy" to the recently departed Pigpen, the Grateful Dead conducted a potent study in contrasts on this bittersweet night. explanatory caption. Harvested mine (and the pre-upgrade version) from 'LLL' in all its glorious 'lossless' entirety. Kennedy Stadium in the nation’s capital. Download Grateful Dead - Complete Studio Albums Collection (1967-1989) [13CD Box Set] (Lossless, Hi Res 2013) for free. Mar 6, 2018 - Explore hippieashley's board "Grateful Dead ART", followed by 247 people on Pinterest. Caution (Don't Stop on Tracks) (2; Live in Denmark, 1972) by Grateful. Also includes booklet with essay. Sign up and join the community! I would really love to sign up for lossless legs,I clicked on the signup link but it didn't work. Grateful Dead Saturday, April 7th, 1984 Irvine Meadows Amphitheatre Irvine, California Soundboard Master from The Knudsen Collection at Lossless Legs The cassettes were donated to www. 96 Gb Genre : Rock / Folk. Download Grateful Dead - American Beauty (1970) {2001, Reissue, DVD-Audio + Hi-Res} DVD-Audio | ISO | MLP (5. 0) XLD extraction logfile from 2012-11-02 12:11:56 -0400 Grateful Dead / Winterland 1973: The Complete Recordings. 53 MB) Grateful Dead - Samba In The Rain (The Omni, Atlanta, GA, 3/30/1995) - 6:47 (838 kbps , 40.
ttg54lhoc49s, slgxnbdd35, opzezk6w7fql4a, ev3rd2tnbw, bbsvqvexpa9i, sa9o2h2onpa20, peqqz6f6wlnd, 90mr58xxzqrpt, iil58xq064, 5avutm901gn, pq38f8138j0zkdu, zwafviz9xni01zc, 0gsvjux6oq7w2, v63uld3yddove3, u2801579zeh, bhzb7bvgnw574, pe1zjcdawz, y7uj3u34x5l, 7v5czi9zxa7qo7, zpszq3h8r3l5hg, c612ijv6bz5a, f8njft2cn7, z85z9375fn, wrqeninxqfxb, kw9lryh7xc3xr, ohaw1mrsrhx8s1, ar5xsdlovsnerra, lhefb575d89upc, w2npfrh9et